<?xml version="1.0" standalone="no"?>
<!DOCTYPE svg PUBLIC "-//W3C//DTD SVG 1.1//EN" "http://www.w3.org/Graphics/SVG/1.1/DTD/svg11.dtd" >
<svg xmlns="http://www.w3.org/2000/svg">
<metadata>Generated by IcoMoon</metadata>
<defs>
<font id="iconmoon" horiz-adv-x="1024">
<font-face units-per-em="1024" ascent="896" descent="-128" />
<missing-glyph horiz-adv-x="1024" />
<glyph unicode="&#x20;" horiz-adv-x="0" d="" />
<glyph unicode="&#xe900;" glyph-name="tel-consult-icon" d="M597.333 806.396c-21.21 0-38.4-17.192-38.4-38.4s17.19-38.4 38.4-38.4c49.301 0 83.968-7.548 111.441-19.679 27.507-12.148 50.321-29.986 74.735-54.406 24.422-24.421 42.261-47.234 54.409-74.743 12.13-27.471 19.682-62.139 19.682-111.439 0-21.21 17.19-38.4 38.4-38.4 21.205 0 38.4 17.19 38.4 38.4 0 57.366-8.836 103.078-26.227 142.464-17.378 39.347-42.202 69.868-70.353 98.020-28.151 28.155-58.675 52.982-98.022 70.358-39.386 17.393-85.099 26.224-142.464 26.224zM219.645 742.396c-70.853 0-130.917-61.495-115.399-136.672 21.902-106.105 76.486-286.099 209.933-419.548 130.309-130.308 296.381-185.493 397.279-208.41 75.729-17.203 137.609 43.456 137.609 114.381v133.094c0 34.897-22.327 65.873-55.433 76.907l-80.209 26.739c-22.451 7.484-47.053 4.783-67.345-7.394l-61.589-36.954c-7.599-4.561-15.189-4.301-20.203-1.651-69.299 36.693-125.261 92.676-155.13 153.86-1.876 3.84-2.226 10.385 2.161 17.698l35.419 59.033c15.087 25.142 15.42 56.471 0.87 81.929l-60.65 106.141c-14.433 25.258-41.294 40.846-70.385 40.846h-96.927zM179.46 621.25c-4.545 22.019 12.204 44.346 40.185 44.346h96.927c1.531 0 2.945-0.82 3.705-2.15l60.652-106.141c0.766-1.34 0.748-2.989-0.046-4.312l-35.42-59.033c-15.471-25.788-20.428-59.959-5.32-90.906 37.891-77.615 106.453-144.751 188.211-188.041 31.569-16.713 67.836-13.018 95.65 3.669l61.589 36.954c1.071 0.64 2.364 0.785 3.546 0.388l80.209-26.735c1.741-0.58 2.918-2.21 2.918-4.049v-133.094c0-28.241-22.353-44.361-43.802-39.488-94.498 21.461-244.356 72.201-359.98 187.823-117.662 117.662-168.225 280.003-189.025 380.768zM576 657.062c-21.21 0-38.4-17.192-38.4-38.4s17.19-38.4 38.4-38.4c29.764 0 49.6-2.979 64.333-8.006 13.999-4.778 25.092-11.985 36.514-23.404 8.964-8.963 17.126-23.788 22.985-43.205 5.747-19.046 8.435-39.776 8.435-57.632 0-21.21 17.19-38.4 38.4-38.4 21.205 0 38.4 17.19 38.4 38.4 0 24.786-3.627 53.034-11.708 79.812-7.966 26.406-21.133 54.254-42.206 75.33-18.62 18.619-39.522 32.74-66.014 41.782-25.762 8.791-54.903 12.122-89.139 12.122z" />
<glyph unicode="&#xe901;" glyph-name="wechat-icon" d="M85.333 768c0 23.564 19.103 42.667 42.667 42.667h298.667c23.565 0 42.667-19.103 42.667-42.667v-298.667c0-23.565-19.102-42.667-42.667-42.667h-298.667c-23.564 0-42.667 19.102-42.667 42.667v298.667zM170.667 725.333v-213.333h213.333v213.333h-213.333zM85.333 298.667c0 23.565 19.103 42.667 42.667 42.667h298.667c23.565 0 42.667-19.102 42.667-42.667v-298.667c0-23.565-19.102-42.667-42.667-42.667h-298.667c-23.564 0-42.667 19.102-42.667 42.667v298.667zM170.667 256v-213.333h213.333v213.333h-213.333zM554.667 768c0 23.564 19.102 42.667 42.667 42.667h298.667c23.565 0 42.667-19.103 42.667-42.667v-298.667c0-23.565-19.102-42.667-42.667-42.667h-298.667c-23.565 0-42.667 19.102-42.667 42.667v298.667zM640 725.333v-213.333h213.333v213.333h-213.333zM618.667 341.333c23.565 0 42.667-19.102 42.667-42.667v-298.667c0-23.565-19.102-42.667-42.667-42.667s-42.667 19.102-42.667 42.667v298.667c0 23.565 19.102 42.667 42.667 42.667zM874.667 341.333c23.565 0 42.667-19.102 42.667-42.667v-298.667c0-23.565-19.102-42.667-42.667-42.667s-42.667 19.102-42.667 42.667v298.667c0 23.565 19.102 42.667 42.667 42.667z" />
<glyph unicode="&#xe902;" glyph-name="free-trial-icon" d="M106.667 0c0 23.565 19.103 42.667 42.667 42.667h768c23.565 0 42.667-19.102 42.667-42.667s-19.102-42.667-42.667-42.667h-768c-23.564 0-42.667 19.102-42.667 42.667zM676.156 810.667c11.319 0.002 22.178-4.496 30.182-12.503l155.84-155.906c16.653-16.661 16.653-43.665 0-60.326l-441.235-441.429c-8.002-8.004-18.857-12.501-30.176-12.501h-156.1c-23.564 0-42.667 19.102-42.667 42.667v155.307c0 11.311 4.488 22.153 12.479 30.153l441.495 442.026c8 8.011 18.859 12.513 30.182 12.515zM676.173 707.636l-398.839-399.318v-94.985h95.755l398.585 398.761-95.501 95.542z" />
<glyph unicode="&#xe903;" glyph-name="start" d="M768 384l-448-295.603v591.206l448-295.603z" />
<glyph unicode="&#xe904;" glyph-name="arrow_right" horiz-adv-x="614" d="M76.367 807.769c-20.958-20.958-20.958-54.993 0-76.041l347.694-347.694-347.694-347.784c-20.958-20.958-20.958-54.993 0-75.952 20.958-21.048 54.993-21.048 75.952 0l385.67 385.76c10.479 10.479 15.764 24.272 15.764 37.976s-5.284 27.497-15.764 37.976l-385.67 385.76c-20.958 20.958-55.083 20.958-75.952 0z" />
<glyph unicode="&#xe905;" glyph-name="download" d="M483.893 128.641c7.657-7.35 17.829-11.080 28-11.080s20.229 3.73 28 11.080l178.171 171.030c15.429 14.81 15.429 38.835 0 53.646-7.429 7.131-17.371 11.080-27.886 11.080s-20.457-3.949-27.886-11.080l-110.743-106.304v547.029c0 20.954-17.714 37.958-39.543 37.958s-39.543-17.004-39.543-37.958v-547.029l-110.743 106.304c-15.429 14.81-40.457 14.81-55.771 0-15.429-14.81-15.429-38.835-0.114-53.646l178.057-171.030zM984.457 286.507c-21.829 0-39.543-17.004-39.543-37.958v-214.363c0-12.397-10.514-22.599-23.543-22.599h-818.857c-12.914 0-23.543 10.093-23.543 22.599v214.473c0 20.954-17.714 37.958-39.543 37.958s-39.429-17.114-39.429-37.958v-244.532c0-37.629 31.886-68.127 70.971-68.127h882.057c39.2 0 70.971 30.608 70.971 68.127v244.532c0 20.844-17.714 37.848-39.543 37.848z" />
<glyph unicode="&#xe906;" glyph-name="file" horiz-adv-x="878" d="M131.625 459.328h244.634c61.159 0 110.93 49.792 110.93 110.976 0 0.32-0.192 0.576-0.192 0.896 0 0.256 0.192 0.576 0.192 0.896v247.104h220.516c21.175 0 38.384-15.488 38.384-34.496v-797.184c0-21.376-15.29-38.72-34.162-38.72-0.704 0-1.343-0.384-2.111-0.448-0.704 0.064-1.343 0.448-2.111 0.448h-526.053c-3.646 1.152-7.357 2.304-11.323 2.304-21.367 0-38.704 15.296-38.704 34.112v474.112zM410.357 570.304c0-18.88-15.29-34.176-34.098-34.176h-202.22l236.318 234.688v-198.72c0-0.32 0.192-0.64 0.192-0.896 0-0.32-0.192-0.576-0.192-0.896v0zM715.894 895.168c-1.343 0.128-2.559 0.832-3.966 0.832h-268.624c-10.172 0-19.832-4.032-27.061-11.2l-350.062-347.52c-7.229-7.232-11.323-16.96-11.323-27.264v-524.8c0-55.872 43.31-101.76 99.287-109.376 4.926-2.304 10.364-3.84 16.185-3.84h537.376c0.768 0 1.407 0.384 2.111 0.448 0.768-0.064 1.407-0.448 2.111-0.448 61.159 0 110.93 51.84 110.93 115.52v797.184c0 58.624-47.34 106.368-106.963 110.464v0z" />
<glyph unicode="&#xe907;" glyph-name="folder" d="M386.56 785.339c2.688-0.065 28.032 0.392 46.656-38.047 7.424-15.401 16.896-34.718 25.728-52.795h-382.144v51.556c0 21.601 15.488 39.156 34.496 39.156l275.264 0.131zM947.2 21.795c0-21.797-15.296-39.548-34.176-39.548-0.384 0-0.768-0.261-1.152-0.261s-0.704 0.261-1.152 0.261h-799.744c-18.88 0-34.176 17.751-34.176 39.548v594.455h831.68c21.312 0 38.72-15.662 38.72-34.849v-559.606zM908.48 694.496h-363.584c-11.52 23.428-30.016 61.018-42.816 87.449-34.816 71.786-94.144 85.165-118.912 81.51h-271.872c-61.376 0-111.296-52.6-111.296-117.403v-724.257c0-64.934 49.792-117.795 110.976-117.795h799.744c0.448 0 0.768 0.261 1.152 0.261s0.768-0.261 1.152-0.261c61.184 0 110.976 52.861 110.976 117.795v559.606c0 62.389-51.84 113.096-115.52 113.096v0z" />
<glyph unicode="&#xe908;" glyph-name="arrow_down_small" d="M509.465 285.843l-333.822 304.992-79.641-43.245 415.156-371.592 416.845 371.592-81.341 44.409-337.2-306.156z" />
<glyph unicode="&#xe909;" glyph-name="language" d="M407.811 734.249c-89.569-26.754-165.515-86.75-212.273-167.695h151.598c10.405 58.979 30.933 115.713 60.675 167.695zM677.218 566.554h151.42c-46.771 80.933-122.714 140.925-212.271 167.695 29.649-52.041 50.227-108.749 60.851-167.695zM409.048 566.554h205.903c-6.972 32.45-16.922 64.189-29.717 94.815-10.381 26.578-25.617 50.992-44.928 71.995-3.43 4.395-7.697 8.066-12.557 10.799s-10.214 4.474-15.748 5.122c-11.23-1.32-21.474-7.047-28.48-15.921-19.251-21.018-34.428-45.431-44.753-71.995-12.796-30.626-22.745-62.365-29.719-94.815zM194.653 201.267c46.752-80.986 122.691-141.039 212.272-167.868-29.862 52.023-50.508 108.813-61.027 167.868h-151.245zM336.168 262.123c-10.141 80.934-10.141 162.82 0 243.757h-169.641c-27.599-78.91-27.599-164.849 0-243.757h169.641zM856.235 262.123c27.823 78.869 27.823 164.885 0 243.757h-169.463c9.903-80.949 9.903-162.81 0-243.757h169.463zM677.218 201.267c-10.679-59.012-31.317-115.776-61.030-167.868 89.574 26.846 165.508 86.895 212.275 167.868h-151.245zM398.257 262.123h227.483c10.85 80.887 10.85 162.867 0 243.757h-227.483c-10.849-80.89-10.849-162.869 0-243.757zM512 18.364c11.153 1.399 21.312 7.117 28.305 15.919 19.332 21.056 34.569 45.53 44.928 72.171 12.821 30.618 22.771 62.357 29.717 94.814h-205.903c6.948-32.457 16.897-64.196 29.719-94.814 10.308-26.624 25.485-51.102 44.753-72.171 7.006-8.934 17.225-14.771 28.48-16.273v0.354zM512 810.667c84.386 0 166.878-25.024 237.043-71.907s124.851-113.519 157.146-191.482c32.294-77.962 40.742-163.752 24.277-246.517-16.461-82.765-57.097-158.788-116.77-218.462-59.669-59.669-135.693-100.305-218.458-116.766-82.765-16.465-168.555-8.017-246.516 24.277-77.963 32.294-144.6 86.98-191.483 157.146s-71.906 152.657-71.906 237.043c0.023 56.009 11.078 111.462 32.532 163.197s52.889 98.739 92.509 138.325c39.619 39.587 86.649 70.982 138.402 92.394s107.215 32.42 163.224 32.397v0.354z" />
<glyph unicode="&#xe90a;" glyph-name="user" d="M823.765 137.596c-21.295 63.727-62.182 119.164-116.864 158.443s-120.38 60.412-187.789 60.403c-67.409 0.009-133.113-21.124-187.794-60.403s-95.567-94.716-116.861-158.443l-14.136-42.261c-1.457-4.288-1.961-8.845-1.475-13.346 0.486-4.506 1.949-8.849 4.288-12.736 2.339-3.883 5.497-7.215 9.257-9.758 3.759-2.547 8.030-4.25 12.515-4.988l43.434-7.147c165.968-27.558 335.367-27.558 501.336 0l43.639 7.147c4.484 0.738 8.755 2.441 12.514 4.988 3.759 2.543 6.916 5.875 9.254 9.758 2.342 3.887 3.806 8.23 4.288 12.736 0.486 4.501-0.017 9.058-1.472 13.346l-14.135 42.261zM426.506 563.853c4.039-23.749 14.928-45.813 31.333-63.503s37.623-30.24 61.065-36.12c23.509 5.86 44.791 18.426 61.239 36.157s27.349 39.858 31.369 63.67l6.349 38.175c3.511 21.666 2.607 43.814-2.662 65.123l-1.229 5.104c-3.601 14.764-11.2 28.262-21.965 39.024s-24.286 18.377-39.087 22.016l-20.489 5.104c-8.875 2.247-18.172 2.247-27.046 0l-20.489-5.104c-14.775-3.507-28.314-10.97-39.147-21.584-10.829-10.614-18.547-23.974-22.314-38.639l-1.229-5.104c-5.385-21.292-6.292-43.464-2.664-65.123l6.966-39.196zM355.619 689.199c6.729 26.95 20.697 51.565 40.405 71.203s44.411 33.556 71.458 40.261l20.489 5.308c20.19 4.899 41.271 4.899 61.461 0l20.489-5.308c27.046-6.705 51.75-20.623 71.458-40.261s33.677-44.253 40.405-71.203l1.229-5.104c7.74-30.637 9.067-62.534 3.891-93.704l-6.554-37.971c-4.48-27.102-14.69-52.947-29.948-75.823s-35.217-42.26-58.56-56.873c68.373-13.035 132.028-43.981 184.418-89.655s91.631-104.431 113.677-170.223l14.14-42.257c4.599-13.935 6.131-28.693 4.493-43.273s-6.413-28.634-13.995-41.207c-7.586-12.574-17.801-23.369-29.948-31.654s-25.946-13.867-40.452-16.358l-43.639-7.147c-173.636-28.779-350.852-28.779-524.488 0l-43.639 7.147c-14.508 2.492-28.306 8.073-40.454 16.358s-22.362 19.081-29.945 31.654c-7.583 12.574-12.357 26.628-13.997 41.207s-0.107 29.338 4.495 43.273l14.136 42.257c22.011 65.813 61.237 124.591 113.635 170.27 52.398 45.683 116.073 76.612 184.462 89.609-23.337 14.639-43.304 34.031-58.592 56.899s-25.553 48.699-30.12 75.798l-6.351 37.971c-5.136 31.162-3.881 63.038 3.688 93.704l2.254 5.104z" />
<glyph unicode="&#xe90b;" glyph-name="search" d="M931.136 26.359l-241.975 239.279c48.175 59.341 74.389 133.214 74.283 209.338 0.030 44.073-8.717 87.721-25.737 128.448s-41.98 77.734-73.459 108.908c-31.475 31.174-68.851 55.905-109.986 72.778-41.139 16.873-85.231 25.557-129.76 25.557-44.634 0-88.829-8.719-130.051-25.658s-78.661-41.763-110.17-73.052c-31.509-31.288-56.469-68.425-73.448-109.28s-25.644-84.625-25.498-128.801c0-89.031 35.733-174.415 99.34-237.37s149.874-98.321 239.826-98.321c72.903-0.239 143.921 22.933 202.388 66.039l243.089-240.597c4.156-4.032 9.745-6.293 15.565-6.293 5.824 0 11.413 2.261 15.569 6.293l30.025 29.717c2.368 2.065 4.262 4.604 5.559 7.45 1.301 2.85 1.971 5.935 1.971 9.058s-0.67 6.212-1.971 9.058c-1.297 2.846-3.191 5.385-5.559 7.45zM424.501 215.228c-69.449-0.055-136.089 27.132-185.322 75.614-49.233 48.478-77.043 114.3-77.337 183.034 0 68.948 27.673 135.072 76.931 183.825s116.066 76.142 185.728 76.142c69.622-0.058 136.374-27.473 185.585-76.22 49.207-48.747 76.851-114.838 76.851-183.747-0.294-68.7-28.075-134.484-77.257-182.957-49.186-48.474-115.772-75.691-185.18-75.691z" />
<glyph unicode="&#xe90c;" glyph-name="arrow_down" d="M225.833 481.83l60.34 60.34 225.831-225.83 225.83 225.83 60.339-60.34-286.17-286.169-286.171 286.169z" />
<glyph unicode="&#xe90d;" glyph-name="arrow_up" d="M225.833 243.503l60.34-60.339 225.831 225.83 225.83-225.83 60.339 60.339-286.17 286.171-286.171-286.171z" />
<glyph unicode="&#xe90e;" glyph-name="close" d="M574.912 382.204l278.451 278.453-64.674 64.676-278.455-278.455-274.891 274.892-64.676-64.677 274.889-274.889-274.857-274.859 64.676-64.678 274.86 274.859 273.813-273.813 64.678 64.678-273.813 273.813z" />
<glyph unicode="&#xe90f;" glyph-name="minus" d="M256 426.667h528v-42.667h-528v42.667z" />
<glyph unicode="&#xe910;" glyph-name="plus" d="M520 426.667v213.333h-43.998v-213.333h-220.002v-42.667h219.998v-213.333h44.002v213.333h220.002v42.667h-220.002z" />
<glyph unicode="&#xe911;" glyph-name="choose_small" d="M956.948 698.169l-549.792-671.978-321.424 385.701 70.295 58.588 250.477-300.581 479.631 586.214 70.815-57.947z" />
<glyph unicode="&#xe912;" glyph-name="arrow_up_small" d="M513.041 424.269l136.951-125.124 32.674 17.741-170.321 152.448-171.012-152.448 33.369-18.219 138.339 125.602z" />
<glyph unicode="&#xe913;" glyph-name="Union1" d="M748.533 430.728l-333.318 333.318 83.547 83.547 475.944-475.943-475.944-475.941-83.547 83.543 333.32 333.322h-748.527v118.154h748.526z" />
<glyph unicode="&#xe914;" glyph-name="new" horiz-adv-x="1975" d="M512 603.429v-401.847h46.153v330.386h1.682l228.498-330.386h47.323v401.847h-46.153v-326.949h-1.755l-227.328 326.949h-48.421zM916.48 603.429v-401.847h294.4v39.936h-248.174v147.456h225.134v40.009h-225.134v134.51h238.592v39.936h-284.745zM1237.211 603.429l115.346-401.847h51.2l91.794 334.848h1.682l91.136-334.848h51.2l115.493 401.847h-51.785l-88.357-337.189h-2.194l-91.355 337.189h-50.103l-91.721-337.189h-2.267l-88.283 337.189h-51.785zM292.571 708.389v-648.777c0-103.615 83.996-187.611 187.611-187.611h1307.063c103.615 0 187.611 83.996 187.611 187.611v648.777c0 103.615-83.996 187.611-187.611 187.611h-1307.063c-103.615 0-187.611-83.996-187.611-187.611zM336.457 708.389c0 79.36 64.366 143.726 143.726 143.726h1307.063c79.36 0 143.726-64.366 143.726-143.726v-648.777c0-79.36-64.366-143.726-143.726-143.726h-1307.063c-79.378 0-143.726 64.348-143.726 143.726v0 648.777z" />
<glyph unicode="&#xe915;" glyph-name="link" d="M922.046 847.241h-385.665v-73.143h313.993l-412.996-412.997 51.72-51.72 412.995 412.997v-313.995h73.143v385.663c0 29.379-23.815 53.195-53.189 53.195zM66.935 774.098h323.158v-73.143h-292.571v-731.426h731.428v292.569h73.143v-323.158c0-23.501-19.054-42.555-42.555-42.555h-792.603c-23.503 0-42.556 19.054-42.556 42.555v792.602c0 23.503 19.053 42.555 42.556 42.555z" />
<glyph unicode="&#xe916;" glyph-name="free-trial-icon1" d="M697.865 530.591c-66.65 66.649-174.711 66.649-241.361 0-66.649-66.651-66.649-174.708 0-241.358s174.711-66.65 241.361 0c66.65 66.65 66.65 174.707 0 241.358zM516.843 470.251c33.327 33.325 87.356 33.325 120.683 0 33.323-33.323 33.323-87.356 0-120.679-33.327-33.327-87.356-33.327-120.683 0-33.323 33.323-33.323 87.356 0 120.679zM1012.685 757.351c-8.887 44.433-43.618 79.164-88.051 88.050-206.528 41.305-422.067-62.379-563.957-198.336-4.607 0.455-9.366 0.162-14.121-0.975l-181.545-43.421c-7.665-1.833-14.672-5.754-20.245-11.327l-70.491-70.491c-16.662-16.662-16.662-43.677 0-60.342l553.522-553.519c16.661-16.661 43.674-16.661 60.339 0l70.49 70.49c5.572 5.577 9.493 12.582 11.328 20.245l43.422 181.547c1.135 4.757 1.429 9.519 0.973 14.127 135.957 141.888 239.637 357.424 198.336 563.952zM907.895 761.725c10.654-2.13 18.982-10.457 21.111-21.109 34.833-174.173-56.508-368.635-186.547-498.679-10.871-10.871-14.652-26.155-11.332-40.090-0.277-0.896-0.525-1.805-0.747-2.726l-40.619-169.822-31.795-31.799-493.182 493.182 31.799 31.799 169.822 40.618c0.924 0.221 1.833 0.47 2.728 0.747 13.935-3.316 29.215 0.462 40.087 11.334 130.040 130.041 324.502 221.38 498.676 186.546zM326.697 99.072c16.663 16.666 16.663 43.678 0 60.339-16.662 16.666-43.677 16.666-60.34 0l-120.68-120.678c-16.662-16.661-16.662-43.678 0-60.339s43.677-16.661 60.34 0l120.679 120.678zM175.843 249.911c16.662-16.661 16.662-43.674 0-60.339l-60.34-60.339c-16.663-16.661-43.677-16.661-60.34 0s-16.662 43.678 0 60.339l60.34 60.339c16.662 16.666 43.677 16.666 60.34 0zM417.207-51.78c16.661 16.661 16.661 43.678 0 60.339s-43.677 16.661-60.34 0l-60.34-60.339c-16.663-16.661-16.663-43.678 0-60.339s43.677-16.661 60.34 0l60.34 60.339z" />
<glyph unicode="&#xe917;" glyph-name="wecom-icon" d="M761.335 238.946c-19.883 0-36.002 16.235-36.002 36.267 0 20.028 16.119 36.267 36.002 36.267 19.878 0 35.998-16.239 35.998-36.267 0-20.032-16.119-36.267-35.998-36.267zM581.333 275.213c0-20.032 16.119-36.267 36.002-36.267 19.878 0 35.998 16.235 35.998 36.267 0 20.028-16.119 36.267-35.998 36.267-19.883 0-36.002-16.239-36.002-36.267zM322.667 459.371c26.509 0 48 21.649 48 48.356 0 26.705-21.491 48.356-48 48.356s-48-21.651-48-48.356c0-26.707 21.491-48.356 48-48.356zM514.667 459.371c26.509 0 48 21.649 48 48.356 0 26.705-21.491 48.356-48 48.356s-48-21.651-48-48.356c0-26.707 21.491-48.356 48-48.356zM448 810.667c203.452 0 369.941-158.214 383.155-358.332 77.222-46.711 128.845-131.494 128.845-228.335 0-35.661-7.023-69.773-19.789-100.962l19.213-116.075c2.607-15.753-3.802-31.646-16.606-41.186-12.809-9.536-29.871-11.127-44.215-4.117l-68.42 33.429c-40.021-23.97-86.869-37.756-136.849-37.756-78.387 0-148.873 33.822-197.666 87.667-55.206-6.554-112.259-0.614-170.721 16.853l-137.219-58.94c-14.335-6.157-30.886-3.998-43.163 5.628s-18.322 25.182-15.764 40.572l22.279 134.033c-54.388 66.253-87.079 151.108-87.079 243.52 0 212.078 171.922 384 384 384zM800.841 77.956c1.34 1.028 2.731 1.975 4.169 2.833 10.534 6.323 22.933 7.595 34.099 4.275 2.586-0.768 5.103-1.779 7.518-3.038l15.1-7.377-7.731 46.729c-0.525 3.051-0.721 6.17-0.572 9.297 0.286 5.862 1.775 11.486 4.262 16.585 10.88 23.249 16.981 49.225 16.981 76.74 0 100.147-81.186 181.333-181.333 181.333s-181.333-81.186-181.333-181.333c0-100.147 81.186-181.333 181.333-181.333 40.307 0 77.427 13.099 107.507 35.29zM740.676 486.476c-27.695 136.282-148.211 238.857-292.676 238.857-164.95 0-298.667-133.716-298.667-298.667 0-77.867 29.741-148.689 78.558-201.877 8.878-9.673 12.807-22.895 10.655-35.849l-12.768-76.813 80.050 34.385c9.602 4.122 20.384 4.582 30.301 1.284 38.188-12.698 74.257-19.209 108.411-19.981-11.541 29.841-17.873 62.272-17.873 96.183 0 147.277 119.39 266.667 266.667 266.667 16.158 0 31.979-1.437 47.343-4.19z" />
</font>
</defs>
</svg>
